<?xml version="1.0" standalone="no"?>
<!DOCTYPE svg PUBLIC "-//W3C//DTD SVG 1.1//EN" "http://www.w3.org/Graphics/SVG/1.1/DTD/svg11.dtd" >
<svg xmlns="http://www.w3.org/2000/svg">
<metadata>
Created by FontForge 20120731 at Tue May  2 00:43:48 2017
 By admin
</metadata>
<defs>
<font id="iconfont" horiz-adv-x="1024" >
  <font-face 
    font-family="iconfont"
    font-weight="500"
    font-stretch="normal"
    units-per-em="1024"
    panose-1="2 0 6 3 0 0 0 0 0 0"
    ascent="896"
    descent="-128"
    x-height="792"
    bbox="-4.25 -341 1443 1109"
    underline-thickness="0"
    underline-position="0"
    unicode-range="U+0078-E85A"
  />
<missing-glyph 
 />
    <glyph glyph-name=".notdef" 
 />
    <glyph glyph-name=".notdef" 
 />
    <glyph glyph-name=".null" horiz-adv-x="0" 
 />
    <glyph glyph-name="nonmarkingreturn" horiz-adv-x="341" 
 />
    <glyph glyph-name="x" unicode="x" horiz-adv-x="1001" 
d="M281 543q-27 -1 -53 -1h-83q-18 0 -36.5 -6t-32.5 -18.5t-23 -32t-9 -45.5v-76h912v41q0 16 -0.5 30t-0.5 18q0 13 -5 29t-17 29.5t-31.5 22.5t-49.5 9h-133v-97h-438v97zM955 310v-52q0 -23 0.5 -52t0.5 -58t-10.5 -47.5t-26 -30t-33 -16t-31.5 -4.5q-14 -1 -29.5 -0.5
t-29.5 0.5h-32l-45 128h-439l-44 -128h-29h-34q-20 0 -45 1q-25 0 -41 9.5t-25.5 23t-13.5 29.5t-4 30v167h911zM163 247q-12 0 -21 -8.5t-9 -21.5t9 -21.5t21 -8.5q13 0 22 8.5t9 21.5t-9 21.5t-22 8.5zM316 123q-8 -26 -14 -48q-5 -19 -10.5 -37t-7.5 -25t-3 -15t1 -14.5
t9.5 -10.5t21.5 -4h37h67h81h80h64h36q23 0 34 12t2 38q-5 13 -9.5 30.5t-9.5 34.5q-5 19 -11 39h-368zM336 498v228q0 11 2.5 23t10 21.5t20.5 15.5t34 6h188q31 0 51.5 -14.5t20.5 -52.5v-227h-327z" />
    <glyph glyph-name="cut" unicode="&#xe61b;" 
d="M933 128q-49 49 -112 49h-20l-46 46l182 181q34 34 34 91t-34 91l-272 -273l-272 273q-34 -34 -34 -91t34 -91l181 -181l-45 -46h-21q-63 0 -112 -49q-43 -43 -48.5 -99t30.5 -92q32 -32 81 -32q63 0 112 49q28 28 40 63t7 68l47 47l46 -47q-5 -33 7.5 -68t40.5 -63
q49 -49 112 -49q48 0 80 32q36 36 31 92t-49 99zM552 32q-8 -20 -24 -35.5t-35 -23.5q-17 -7 -34 -7q-24 0 -38 13.5t-14 36.5q0 17 8 35q8 19 23.5 34.5t35.5 23.5q17 8 34 8q24 0 37.5 -14t13.5 -37q0 -17 -7 -34v0zM664.5 158q-26.5 0 -45 19t-18.5 45.5t18.5 45.5t45 19
t45.5 -19t19 -45.5t-19 -45.5t-45.5 -19zM908 -21q-14 -13 -37 -13q-17 0 -35 7q-19 8 -34.5 23.5t-24.5 35.5q-7 17 -7 34q0 23 14 37t37 14q17 0 35 -8q19 -8 34.5 -23.5t24.5 -34.5q7 -17 7 -35q0 -23 -14 -37v0zM300 -37h-133q-6 0 -10.5 4.5t-4.5 10.5v811
q0 6 4.5 10.5t10.5 4.5h691q6 0 10.5 -4.5t4.5 -10.5v-150h60v150q0 31 -22 53t-53 22h-691q-31 0 -53 -22t-22 -53v-811q0 -31 22 -53t53 -22h133v60v0z" />
    <glyph glyph-name="comments" unicode="&#xe600;" 
d="M840 76v-170l-167 103q-37 -6 -71 -6q-85 0 -160 30.5t-129 83.5q26 -2 35 -2q23 0 49 3q90 -62 205 -62q37 0 77 8l58 -39v0l44 -29v106q68 38 108.5 101t40.5 136q0 93 -64 168q4 31 4 56q0 4 -1 26q57 -48 89 -111.5t32 -134.5q0 -80 -40 -150t-110 -117zM422 183
q-34 0 -71 6l-167 -103v169q-70 47 -110 117t-40 150q0 92 52 170.5t141.5 124t195 45.5t195 -45.5t141 -124t51.5 -170.5t-51.5 -170.5t-141 -123.5t-195.5 -45zM422.5 802q-89.5 0 -165 -38t-119.5 -103.5t-44 -142.5q0 -73 40.5 -135.5t108.5 -101.5v-106l44 29v0l58 39
q40 -8 77 -8q90 0 165.5 38t119.5 103t44 142t-44 142.5t-119.5 103.5t-165 38zM616.5 474q-18.5 0 -31.5 13t-13 31.5t13 31.5t31.5 13t31.5 -13t13 -31.5t-13 -31.5t-31.5 -13zM437.5 474q-18.5 0 -31.5 13t-13 31.5t13 31.5t31.5 13t31.5 -13t13 -31.5t-13 -31.5
t-31.5 -13zM258.5 474q-18.5 0 -31.5 13t-13 31.5t13 31.5t31.5 13t31.5 -13t13 -31.5t-13 -31.5t-31.5 -13z" />
    <glyph glyph-name="nav" unicode="&#xe648;" 
d="M63 789v-141h892v141h-892zM63 319h892v141h-892v-141zM63 -10h892v141h-892v-141z" />
    <glyph glyph-name="setting-full" unicode="&#xe737;" 
d="M976 486h-120q-11 36 -29 69l86 85q14 14 14 34t-14 34l-77 77q-14 14 -34 14t-34 -14l-86 -86q-32 18 -68 29v120q0 20 -14 34t-34 14h-108q-20 0 -34 -14t-14 -34v-120q-36 -11 -69 -29l-85 86q-14 14 -34 14t-34 -14l-77 -77q-14 -14 -14 -34t14 -34l86 -85
q-18 -33 -29 -69h-120q-20 0 -34 -14t-14 -34v-108q0 -20 14 -34t34 -14h120q11 -36 29 -69l-86 -85q-14 -14 -14 -34t14 -34l77 -77q14 -14 34 -14t34 14l85 86q33 -18 69 -29v-120q0 -20 14 -34t34 -14h108q20 0 34 14t14 34v120q36 11 69 29l85 -86q14 -14 34 -14t34 14
l77 77q14 14 14 34t-14 34l-86 86q18 32 29 68h120q20 0 34 14t14 34v108q0 20 -14 34t-34 14zM512 179q-85 0 -145 60t-60 145t60 145t145 60t145 -60t60 -145t-60 -145t-145 -60z" />
    <glyph glyph-name="more" unicode="&#xe679;" 
d="M122 504q-49 0 -84 -34.5t-35 -83.5t35 -84t84 -35t83.5 35t34.5 84t-34.5 83.5t-83.5 34.5zM500 504q-49 0 -84 -34.5t-35 -83.5t35 -84t84 -35t84 35t35 84t-35 83.5t-84 34.5zM902 504q-49 0 -84 -34.5t-35 -83.5t35 -84t84 -35t83.5 35t34.5 84t-34.5 83.5
t-83.5 34.5z" />
    <glyph glyph-name="key" unicode="&#xe709;" 
d="M851 -96h-676q-51 0 -87 35t-36 85v299q0 50 36 85t87 35v90q0 90 45 166t123 120t170 44t169.5 -44t123 -120t45.5 -166v-2h-1q0 -11 -9 -19.5t-21 -8.5t-20.5 8.5t-9.5 19.5h-1v2q0 112 -81 191t-195.5 79t-195.5 -79t-81 -191v-90h615q51 0 87 -35t36 -85v-299
q0 -50 -36 -85t-87 -35v0v0zM912 323q0 25 -18 42.5t-43 17.5h-676q-26 0 -44 -17.5t-18 -42.5v-299q0 -25 18 -42.5t44 -17.5h676q25 0 43 17.5t18 42.5v299zM544 150v-96q0 -13 -9 -21.5t-22 -8.5t-22 8.5t-9 21.5v96q-27 9 -44 32t-17 52q0 37 27 63t65 26t65 -26t27 -63
q0 -29 -17 -52t-44 -32v0v0zM513 264q-13 0 -22 -9t-9 -21.5t9 -21t22 -8.5t22 8.5t9 21t-9 21.5t-22 9v0v0zM513 264z" />
    <glyph glyph-name="delete" unicode="&#xe620;" 
d="M964 637h-904q-11 0 -19.5 8.5t-8.5 20t8.5 20t19.5 8.5h904q11 0 19.5 -8.5t8.5 -20t-8.5 -20t-19.5 -8.5zM766 -96h-536q-35 0 -60 25t-25 60v564q0 12 8.5 20.5t20 8.5t20 -8.5t8.5 -20.5v-564q0 -12 8 -20t20 -8h536q12 0 20 8t8 20v564q0 12 8 20.5t20 8.5t20 -8.5
t8 -20.5v-564q0 -35 -24.5 -60t-59.5 -25zM737.5 666q-11.5 0 -19.5 8.5t-8 20.5v84q0 12 -8.5 20t-20.5 8h-367q-11 0 -20 -8t-9 -20v-84q0 -12 -8 -20.5t-19.5 -8.5t-19.5 8.5t-8 20.5v84q0 35 24.5 60t59.5 25h367q35 0 59.5 -25t24.5 -60v-84q0 -12 -8 -20.5t-19.5 -8.5
zM398.5 45q-11.5 0 -20 8.5t-8.5 19.5v367q0 12 8.5 20.5t20 8.5t20 -8.5t8.5 -20.5v-367q0 -11 -8.5 -19.5t-20 -8.5zM597 45q-12 0 -20 8.5t-8 19.5v367q0 12 8 20.5t20 8.5t20 -8.5t8 -20.5v-367q0 -11 -8 -19.5t-20 -8.5z" />
    <glyph glyph-name="up" unicode="&#xe6ad;" 
d="M966 55h-585q-45 0 -77.5 32t-32.5 78v496l102 -102q11 -10 26 -10t26 10.5t11 25.5t-11 26l-164 165q-11 10 -26 10t-26 -10l-165 -165q-10 -11 -10 -26t10.5 -25.5t25.5 -10.5t26 10l102 102v-496q0 -76 53.5 -129.5t129.5 -53.5h585q15 0 26 10.5t11 25.5t-11 26
t-26 11z" />
    <glyph glyph-name="count" unicode="&#xe645;" 
d="M611 793q42 -8 83 -25q68 -28 121 -81t81 -121q17 -41 25 -83h-310v310zM545 864v-447h447q0 91 -35.5 174t-95 142.5t-142.5 95t-174 35.5v0zM512 384v414l-66 -2q-114 -8 -209 -69t-150 -160.5t-55 -215.5q0 -91 35.5 -174t95 -142.5t142.5 -95t174 -35.5
q116 0 215.5 55t160.5 150t69 209l2 66h-414zM479 -30q-104 0 -191.5 51t-138.5 138.5t-51 191.5q0 149 100.5 257.5t247.5 121.5v-412h412q-13 -147 -121.5 -247.5t-257.5 -100.5z" />
    <glyph glyph-name="close" unicode="&#xe602;" 
d="M962 438h-396v396h-108v-396h-396v-108h396v-396h108v396h396v108z" />
    <glyph glyph-name="help" unicode="&#xe6a3;" 
d="M1024 384q0 139 -68.5 257t-186.5 186.5t-257 68.5t-257 -68.5t-186.5 -186.5t-68.5 -257t68.5 -257t186.5 -186.5t257 -68.5q179 0 319 111q8 7 9 17t-5.5 18.5t-16.5 9.5t-18 -6q-126 -100 -288 -100q-94 0 -179.5 36.5t-147.5 98.5t-98.5 147.5t-36.5 179.5
t36.5 179.5t98.5 147.5t147.5 98.5t179.5 36.5t179.5 -36.5t147.5 -98.5t98.5 -147.5t36.5 -179.5q0 -132 -70 -244q-5 -9 -2.5 -19t11 -15.5t18.5 -3t16 11.5q77 123 77 270zM533 205q14 0 24 -10t10 -25v-9q0 -14 -10 -24t-24 -10v0q-14 0 -24 10t-10 24v9q0 15 10 25
t24 10v0zM375 477q0 -2 1 -6t8.5 -10.5t19 -6.5t18.5 6t8 11l2 6q-2 58 24.5 85t80.5 24q73 -8 75 -81q-5 -33 -54 -85q-65 -65 -65 -117v-35q1 -3 2 -6.5t8 -9t17.5 -5.5t17.5 5t8 10l2 6v24q0 44 62 104q64 59 64 109q-5 136 -142 141q-157 3 -157 -169z" />
    <glyph glyph-name="info" unicode="&#xe6a4;" 
d="M1024 384q0 139 -68.5 257t-186.5 186.5t-257 68.5t-257 -68.5t-186.5 -186.5t-68.5 -257t68.5 -257t186.5 -186.5t257 -68.5q179 0 319 111q8 7 9 17t-5.5 18.5t-16.5 9.5t-18 -6q-126 -100 -288 -100q-94 0 -179.5 36.5t-147.5 98.5t-98.5 147.5t-36.5 179.5
t36.5 179.5t98.5 147.5t147.5 98.5t179.5 36.5t179.5 -36.5t147.5 -98.5t98.5 -147.5t36.5 -179.5q0 -132 -70 -244q-5 -9 -2.5 -19t11 -15.5t18.5 -3t16 11.5q77 123 77 270zM500 153q0 -10 7 -17.5t17.5 -7.5t17.5 7.5t7 17.5v318q0 11 -7 18t-17.5 7t-17.5 -7t-7 -18
v-318zM500 578q0 -11 7 -18t17.5 -7t17.5 7t7 18v43q0 11 -7 18t-17.5 7t-17.5 -7t-7 -18v-43z" />
    <glyph glyph-name="pic" unicode="&#xe6a8;" 
d="M478 324l-33 -4l228 -145l319 236v257q0 57 -39 96.5t-94 39.5h-827v-704q0 -57 39 -96.5t94 -39.5h827v271q0 11 -8 19t-19 8t-18.5 -8t-7.5 -19v-244l26 27h-800q-33 0 -56.5 24t-23.5 58v677l-26 -27h800q33 0 56.5 -24t23.5 -58v-243l11 22l-294 -217l30 1l-231 147
l-229 -232q-7 -8 -7 -19.5t7.5 -19.5t18.5 -8t19 8zM352 546.5q0 39.5 -27.5 67t-66 27.5t-66 -27.5t-27.5 -67t27.5 -67t66 -27.5t66 27.5t27.5 67zM219 546.5q0 16.5 11.5 28.5t28 12t28.5 -12t12 -28.5t-12 -28.5t-28.5 -12t-28 12t-11.5 28.5z" />
    <glyph glyph-name="success" unicode="&#xe6b1;" 
d="M464 219q8 -7 18 -7t17 8l300 309q7 7 7 17.5t-7.5 17.5t-18 7t-17.5 -7l-300 -310l35 1l-181 167q-8 7 -18.5 6.5t-17.5 -8t-6.5 -18t8.5 -17.5zM1024 384q0 139 -68.5 257t-186.5 186.5t-257 68.5t-257 -68.5t-186.5 -186.5t-68.5 -257t68.5 -257t186.5 -186.5
t257 -68.5q179 0 319 111q8 7 9 17t-5.5 18.5t-16.5 9.5t-18 -6q-126 -100 -288 -100q-94 0 -179.5 36.5t-147.5 98.5t-98.5 147.5t-36.5 179.5t36.5 179.5t98.5 147.5t147.5 98.5t179.5 36.5t179.5 -36.5t147.5 -98.5t98.5 -147.5t36.5 -179.5q0 -132 -70 -244
q-5 -9 -2.5 -19t11 -15.5t18.5 -3t16 11.5q77 123 77 270z" />
    <glyph glyph-name="warning" unicode="&#xe6b6;" 
d="M598 738q-40 64 -100 64t-100 -64l-373 -602q-40 -65 -12.5 -116.5t103.5 -52.5h775q78 -2 105 40.5t-13 107.5q-1 4 -11 18l-8 13q-6 9 -16 11.5t-18.5 -3t-11 -15.5t2.5 -19v0l1 -1l1 -2v-1h1v-1l1 -1v-1h1v-1l1 -1v-1l1 -1v0l1 -2v0v0l2 -2l1 -2l1 -2l1 -2l1 -2l1 -1
l1 -1l1 -1v-2h1v-1l1 -1l1 -2v0q23 -38 11.5 -55t-60.5 -16h-775q-47 1 -61 26.5t11 65.5l373 602q26 41 58.5 41t57.5 -41l301 -472q6 -9 16 -11t18.5 3.5t11 16t-3.5 18.5zM475 276q0 -10 7 -17.5t17.5 -7.5t17.5 7.5t7 17.5v320q0 11 -7 18t-17.5 7t-17.5 -7t-7 -18v-320
zM474 119q1 -10 8 -17.5t17.5 -7.5t17.5 7.5t7 18.5v64q0 10 -7.5 17.5t-18 7t-17.5 -7.5t-7 -18v-64z" />
    <glyph glyph-name="wrong" unicode="&#xe6b7;" 
d="M1024 384q0 139 -68.5 257t-186.5 186.5t-257 68.5t-257 -68.5t-186.5 -186.5t-68.5 -257t68.5 -257t186.5 -186.5t257 -68.5q179 0 319 111q8 7 9 17t-5.5 18.5t-16.5 9.5t-18 -6q-126 -100 -288 -100q-94 0 -179.5 36.5t-147.5 98.5t-98.5 147.5t-36.5 179.5
t36.5 179.5t98.5 147.5t147.5 98.5t179.5 36.5t179.5 -36.5t147.5 -98.5t98.5 -147.5t36.5 -179.5q0 -132 -70 -244q-5 -9 -2.5 -19t11 -15.5t18.5 -3t16 11.5q77 123 77 270zM332 232q-7 -7 -7 -17.5t7.5 -17.5t17.5 -7t17 7l350 357q8 7 8 17.5t-7.5 17.5t-18 7t-17.5 -7z
M682 197q7 -7 17.5 -7t18 7t7.5 17.5t-8 17.5l-350 357q-7 7 -17 7t-17.5 -7t-7.5 -17.5t7 -17.5z" />
    <glyph glyph-name="account" unicode="&#xe6b8;" 
d="M776 588q0 115 -81 196t-195 81t-195 -81t-81 -196t81 -196t195 -81t195 81t81 196zM272 588q0 95 67 162t161 67t161 -67t67 -162t-67 -162t-161 -67t-161 67t-67 162zM32 -51v-24h960v24q0 80 -39 155.5t-104 131t-153.5 89.5t-183.5 34q-23 0 -46 -2q-6 0 5 -8
q16 -11 17 -18q7 1 12 -9.5t12 -10.5q85 0 165 -30.5t138.5 -80t93.5 -115.5t35 -136l24 25h-912l24 -25q0 96 56.5 179t153.5 132q9 4 12 13.5t-1.5 18.5t-14 12t-17.5 -1q-110 -55 -173.5 -149.5t-63.5 -204.5v0z" />
    <glyph glyph-name="search" unicode="&#xe61a;" 
d="M968 47l-163 164q69 108 69 234q0 119 -57.5 219t-157 158.5t-216 58.5t-216 -58.5t-157 -158.5t-57.5 -218.5t57.5 -219t157 -158.5t216.5 -58q124 0 231 69l163 -164q27 -28 65 -28t65 27.5t27 66t-27 66.5zM443.5 134q-127.5 0 -217.5 91.5t-90 220t90 219.5t217.5 91
t217.5 -91t90 -219.5t-90 -220t-217.5 -91.5z" />
    <glyph glyph-name="order-full" unicode="&#xe65e;" 
d="M968 760q0 42 -133.5 72t-322.5 30t-322.5 -30t-133.5 -72v0v-513q10 -55 53 -109t99.5 -94.5t117.5 -73t110.5 -49t75.5 -16.5q25 0 74.5 16.5t110.5 48.5t117.5 72.5t99.5 95t54 109.5v0v513v0zM694 429v-68h-136v-69h136v-68h-136v-91h-92v91h-136v68h136v69h-136v68
h136l-159 228h91l114 -160l114 160h91l-159 -228h136z" />
    <glyph glyph-name="csac" unicode="&#xe608;" 
d="M449 1109h58v-58h-58v58zM449 993h58v-58h-58v58zM449 877h58v-58h-58v58zM449 761h58v-58h-58v58zM449 645h58v-58h-58v58zM449 761h58v-58h-58v58zM449 529h58v-58h-58v58zM449 529h58v-58h-58v58zM449 413h58v-58h-58v58zM449 297h58v-58h-58v58zM449 181h58v-58h-58
v58zM449 65h58v-58h-58v58zM449 181h58v-58h-58v58zM449 -51h58v-58h-58v58zM449 297h58v-58h-58v58zM449 181h58v-58h-58v58zM449 65h58v-58h-58v58zM449 -51h58v-58h-58v58zM449 -167h58v-58h-58v58zM449 -51h58v-58h-58v58zM449 -283h58v-58h-58v58zM1087 413v-58h-58v58
h58zM971 413v-58h-58v58h58zM1087 413v-58h-58v58h58zM855 413v-58h-58v58h58zM1087 413v-58h-58v58h58zM971 413v-58h-58v58h58zM855 413v-58h-58v58h58zM739 413v-58h-58v58h58zM855 413v-58h-58v58h58zM623 413v-58h-58v58h58z" />
    <glyph glyph-name="arrow-down" unicode="&#xe607;" horiz-adv-x="1025" 
d="M0 640h130l382 -383l382 383h130l-512 -512l-512 512v0z" />
    <glyph glyph-name="message" unicode="&#xe649;" 
d="M512 24h-80l-220 -120v220q-85 60 -132.5 141.5t-47.5 178.5q0 114 64 211t175 153t241 56t241 -56t175 -153t64 -211t-64 -211t-175 -153t-241 -56v0zM512 804q-114 0 -211 -48t-153 -131t-56 -181q0 -90 49 -170t131 -130v-133l160 73h80q114 0 211 48t153 131t56 181
t-56 181t-153 131t-211 48v0zM752 384q-25 0 -42.5 17.5t-17.5 42.5t17.5 42.5t42.5 17.5t42.5 -17.5t17.5 -42.5t-17.5 -42.5t-42.5 -17.5v0zM512 384q-25 0 -42.5 17.5t-17.5 42.5t17.5 42.5t42.5 17.5t42.5 -17.5t17.5 -42.5t-17.5 -42.5t-42.5 -17.5v0zM272 384
q-25 0 -42.5 17.5t-17.5 42.5t17.5 42.5t42.5 17.5t42.5 -17.5t17.5 -42.5t-17.5 -42.5t-42.5 -17.5v0z" />
    <glyph glyph-name="remove" unicode="&#xe6a6;" 
d="M930 22l-362 362l361 362q9 9 9 21.5t-9 21.5l-13 13q-8 9 -21 9t-22 -9l-361 -362l-361 362q-9 9 -22 9t-22 -9l-12 -13q-9 -9 -9 -21.5t9 -21.5l361 -362l-362 -362q-9 -9 -9 -21.5t9 -21.5l13 -13q9 -9 21.5 -9t21.5 9l362 362l362 -362q9 -9 21.5 -9t21.5 9l13 13
q9 9 9 21.5t-9 21.5z" />
    <glyph glyph-name="file" unicode="&#xe616;" 
d="M935 879h-859q-20 0 -34 -14t-14 -34v-859q0 -20 14 -34t34 -14h859q20 0 34 14t14 34v859q0 20 -14 34t-34 14zM612 136h-372v106h372v-106zM771 348h-531v106h531v-106zM771 561h-531v106h531v-106z" />
    <glyph glyph-name="attachment" unicode="&#xe6c0;" 
d="M472 777l-379 -399q-72 -75 -71.5 -181.5t74.5 -180.5l3 -4q74 -75 178.5 -75.5t178.5 73.5l500 499q59 59 60 143.5t-56 144.5l-19 -17l-18 -18l4 -4l19 17l18 18q-58 61 -140 60.5t-140 -62.5l-474 -508q-29 -31 -27.5 -73t32.5 -70l11 -11q31 -29 73 -27.5t70 32.5
l369 395q7 8 7 18.5t-8 17.5t-18.5 6.5t-17.5 -7.5l-369 -396q-14 -15 -35 -15.5t-36 13.5l-12 11q-15 14 -15.5 35t13.5 36l474 509q43 45 103 45.5t103 -44.5q11 -11 25 -7t18 16.5t-6 25.5l-4 4q-11 12 -25 7.5t-18 -17t6 -25.5q44 -45 43 -109t-46 -108l-500 -499
q-59 -59 -142.5 -58.5t-142.5 59.5l-3 4q-59 60 -60 145.5t57 146.5l380 399q7 7 7 17.5t-8 18t-18.5 7t-17.5 -7.5v0z" />
    <glyph glyph-name="confirm-full" unicode="&#xe66e;" 
d="M512 896q-104 0 -199 -40.5t-163.5 -109t-109 -163.5t-40.5 -199t40.5 -199t109 -163.5t163.5 -109t199 -40.5t199 40.5t163.5 109t109 163.5t40.5 199t-40.5 199t-109 163.5t-163.5 109t-199 40.5zM458 123l-269 271l84 84l185 -187l333 331l84 -84z" />
    <glyph glyph-name="sofa" unicode="&#xe6d7;" horiz-adv-x="1028" 
d="M888 80q1 5 2 12q3 16 6 33q12 55 31 101q4 8 8 17q11 24 33 54q1 2 15 19t25 32t12 19q13 38 3.5 75t-36.5 59.5t-67.5 29.5t-88.5 -13q-6 -2 -10 -7l-182 -231l19 9h-291q-10 0 -17 -7t-7 -17t7 -17t17 -7h291q12 0 19 9l182 230l-10 -7q64 26 103.5 -6t21.5 -85l-6 -7
q-4 -5 -6 -7q-22 -27 -33 -42q-25 -34 -39 -63q-4 -9 -8 -19q-20 -49 -33 -108q-4 -18 -7 -36q-1 -8 -2 -14q-1 -10 5 -17.5t16 -9t18 4.5t9 16v0v0zM188 86q-1 6 -2 14q-3 18 -7 36q-13 59 -33 108q-5 10 -9 19q-13 29 -38 63q-12 15 -34 42q-2 2 -6 7l-6 7q-17 53 22.5 85
t103.5 6l-10 7l106 -134q6 -8 16 -9t18 5t9 16t-5 18l-106 135q-4 5 -10 7q-37 15 -72 14t-60 -15t-43 -37t-21 -52.5t6 -60.5q2 -4 13 -19t24.5 -32t15.5 -19q22 -30 33 -54q4 -9 8 -17q18 -46 30 -101q4 -17 7 -33q1 -7 2 -12q1 -10 9 -16t18 -4.5t16 9t5 17.5v0v0z
M197 -26v97l-24 -24h691l-24 24v-97q0 -10 7 -17t17 -7t17 7t7 17v97q0 10 -7 17.5t-17 7.5h-691q-10 0 -17 -7.5t-7 -17.5v-97q0 -10 7 -17t17 -7t17 7t7 17v0zM173 520v169q0 31 21.5 52t51.5 21h509q30 0 51.5 -21t21.5 -52v-169h48v169q0 51 -35.5 86.5t-85.5 35.5h-509
q-50 0 -85.5 -35.5t-35.5 -86.5v-169h48z" />
    <glyph glyph-name="lights" unicode="&#xe6de;" 
d="M680 -67q-9 0 -23 -1q-29 0 -57 -1q-40 -1 -74 -1q-67 -1 -105 -1q-22 1 -33 1q-5 1 -7 1q1 0 2 -1q14 -6 14 -21v93v77v42q0 11 -8 18q-4 3 -9 8q-12 11 -25 24q-40 40 -74 81q-68 84 -92 154q-12 35 -12 65q0 96 47.5 178t129 129.5t178 47.5t178 -47.5t129 -129.5
t47.5 -178q0 -27 -11 -58q-25 -73 -105 -161q-37 -41 -82 -81q-14 -12 -27 -23q-6 -5 -10 -8q-9 -7 -9 -19v-114l24 24h-281q-10 0 -17.5 -7t-7.5 -17.5t7.5 -17.5t17.5 -7h281q10 0 17 7t7 18v114l-9 -20q4 4 11 9q14 12 28 25q47 41 86 84q87 96 116 178q13 39 13 74
q0 110 -54 203t-147 147t-202.5 54t-202.5 -54t-147 -147t-54 -203q0 -38 15 -81q27 -78 101 -169q35 -43 77 -85l25 -25q7 -6 10 -9l-8 19v-42v-77v-93q0 -17 16 -24q3 -1 7 -2q5 -1 13 -1q13 -1 36 -2q39 0 107 1q34 0 74 1q29 1 57 2h23q10 1 17 8t7 17.5t-7.5 17
t-17.5 6.5v0zM380 344l122 -122q7 -7 16.5 -7.5t17.5 6.5l122 110q7 6 8 16.5t-6 18t-17 8t-18 -6.5l-122 -110l34 -1l-123 122q-7 8 -17 8t-17 -7.5t-7 -17.5t7 -17v0zM495 227v-208h49v208h-49v0z" />
    <glyph glyph-name="home" unicode="&#xe783;" horiz-adv-x="1025" 
d="M44 310q-19 0 -32 13q-12 14 -12 32t14 31l467 444q13 12 30.5 12t30.5 -12l468 -440q13 -12 14 -30.5t-12 -32t-31 -14t-32 12.5l-437 411l-437 -415q-13 -12 -31 -12v0zM829 -74h-634q-18 0 -31 13t-13 31v298q0 18 13 31t31 13t31 -13t13 -31v-253h546v265q0 18 13 31
t31.5 13t31.5 -13t13 -31v-310q0 -18 -13 -31t-32 -13z" />
    <glyph glyph-name="file-empty" unicode="&#xe685;" 
d="M892 649q-32 44 -81 94q-50 49 -94 81q-54 40 -85 40h-465q-31 0 -53 -22t-22 -53v-810q0 -31 22 -53t53 -22h690q31 0 53 22t22 53v585q0 31 -40 85zM768.5 700.5q39.5 -39.5 67.5 -76.5h-144v144q37 -28 76.5 -67.5zM872 -21q0 -6 -4.5 -10.5t-10.5 -4.5h-690
q-6 0 -10.5 4.5t-4.5 10.5v810q0 6 4.5 10.5t10.5 4.5h465v-210q0 -12 9 -21t21 -9h210v-585z" />
    <glyph glyph-name="pencil" unicode="&#xe619;" 
d="M519 35q-12 0 -22 8q-12 9 -14 24t7 27l375 494q13 17 10 38.5t-20 35.5l-129 97q-17 13 -38.5 10t-34.5 -20l-374 -491q-9 -13 -24 -15t-27 7.5t-14.5 24.5t7.5 27l373 492q31 41 83 48t93 -24l129 -98q42 -31 49 -83t-25 -93l-375 -494q-11 -15 -29 -15v0zM835 485
q-9 0 -16 6l-260 197q-8 6 -9.5 17t5 20t17.5 10.5t20 -5.5l259 -196q9 -7 10.5 -18t-5.5 -20q-8 -11 -21 -11zM189 -107q-13 0 -23 8q-17 14 -14 35l55 341q3 20 22.5 28t35.5 -5l271 -205q17 -13 14.5 -34.5t-22.5 -29.5l-325 -135q-7 -3 -14 -3v0zM270 204l-35 -214
l206 85z" />
    <glyph glyph-name="download" unicode="&#xe638;" 
d="M760 402q-7 8 -17.5 8t-18.5 -8l-212 -212v578q0 11 -7.5 18.5t-18 7.5t-18 -7.5t-7.5 -18.5v-578l-212 212q-8 8 -18.5 8t-18 -7.5t-7.5 -18.5t7 -18l256 -256q8 -8 18.5 -8t18.5 8l256 256q7 7 7 18t-7 18h-1zM896 -77h-819q-32 0 -54.5 22.5t-22.5 54.5v102
q0 11 7.5 18.5t18 7.5t18 -7.5t7.5 -18.5v-102q0 -11 7.5 -18.5t18.5 -7.5h819q11 0 18.5 7.5t7.5 18.5v102q0 11 7.5 18.5t18 7.5t18 -7.5t7.5 -18.5v-102q0 -32 -22.5 -54.5t-54.5 -22.5z" />
    <glyph glyph-name="comment" unicode="&#xe628;" horiz-adv-x="1025" 
d="M304 -96q-13 0 -22 9q-16 15 -8 35q30 73 36 108q-5 10 -5 18q0 13 9.5 22.5t23.5 9.5q19 0 30 -16q15 -22 -4 -83l-1 -5l4 2q93 53 103 81q7 21 30 21q3 0 6 -1q1 0 3 1h3q113 0 208.5 46.5t151 126.5t55.5 174t-55.5 174t-151 126t-208.5 46t-208.5 -46t-151 -126
t-55.5 -174q0 -77 41 -147.5t115 -120.5q11 -8 13.5 -21t-4.5 -24q-10 -14 -27 -14q-10 0 -18 5q-88 60 -136.5 144t-48.5 178q0 111 64.5 206t175 150t240.5 55t240.5 -55t175 -150t64.5 -206q0 -110 -63 -204t-172 -149.5t-237 -57.5h-1l-1 -1q-19 -27 -64.5 -58.5
t-76.5 -47t-60 -28.5q-6 -3 -13 -3v0zM372 342q-14 0 -23.5 9t-9.5 22t9.5 22t23.5 9h215q13 0 23 -9t10 -22t-10 -22t-23 -9h-215zM372 474q-14 0 -23.5 9t-9.5 21.5t9.5 22t23.5 9.5h280q14 0 23.5 -9.5t9.5 -22t-9.5 -21.5t-23.5 -9h-280z" />
    <glyph glyph-name="down" unicode="&#xe714;" 
d="M966 -96h-908q-10 0 -18 8t-8 18v0q0 11 8 19t18 8h908q10 0 18 -8t8 -19v0q0 -10 -8 -18t-18 -8zM901 511v0q-7 7 -19 7t-20 -7l-326 -324v651q0 11 -6.5 18.5t-17.5 7.5t-17.5 -7.5t-6.5 -18.5v-651l-326 324q-8 7 -20 7t-19 -7t-7 -18t7 -20l370 -370q2 -2 5 -2l2 -3
q11 -3 22 0l2 3l5 2l369 370q9 9 9.5 20t-6.5 18z" />
    <glyph glyph-name="copy" unicode="&#xe68e;" 
d="M242 624h360v-60h-360v60zM242 474h360v-60h-360v60zM242 324h360v-60h-360v60zM812 744v120h-780v-840h180v-120h780v840h-180zM92 84v720h660v-720h-660zM932 -36h-660v60h540v660h120v-720z" />
    <glyph glyph-name="purse" unicode="&#xe63b;" 
d="M751 581q-2 2 -45 23q2 3 8 8q46 43 61 86q4 11 12 38q5 36 -2 59t-28 41q-56 47 -129 17q-5 -2 -8 1q-45 42 -107.5 42t-107.5 -41q-4 -3 -8 -1q-36 16 -76 8q-39 -8 -63.5 -37.5t-19.5 -70.5q9 -74 59 -128q1 -1 21 -23l-2 -1t-3 -1q-128 -58 -208 -174t-91 -258
q-6 -95 13 -156q20 -62 68.5 -101.5t111.5 -39.5h306.5h306.5q96 0 152 82q19 27 33 89q1 4 2 5t2 1t1.5 9t0.5 28q0 117 -17 178q-57 210 -243 317zM959 81q-9 -59 -26 -84q-24 -35 -65.5 -55t-86.5 -20h-271h-270q-60 0 -107 31t-61 85q-14 56 -7 154q4 62 33.5 125.5
t74.5 116t99 95t112 68.5q0 1 -11 11t-23.5 22t-15.5 14q-24 28 -36.5 51t-16.5 55q-8 62 59 76q10 2 28 -2.5t32 -10t15 -4.5q39 37 94.5 37t94.5 -38q3 -3 8 -1q24 10 39.5 14t34.5 1.5t35 -16.5q18 -16 21.5 -32t-1.5 -41q-3 -9 -15.5 -31t-20.5 -33q-22 -29 -67 -73
l17.5 -9t38 -19.5t26.5 -14.5q47 -36 75.5 -61t59 -58t49.5 -70.5t31 -83.5q7 -26 10.5 -40.5t8.5 -38t6.5 -40.5t1.5 -38.5t-3 -41.5v0v0zM446 436q-3 4 -11.5 13t-15.5 16l-6 6h-50v-22t124 -128h-124v-49h124v-51h-124v-49h124v-100h50v100h125v50h-125v50h125v49h-125
l125 128v22h-50q-43 -42 -53 -52q-1 -1 -9.5 -10t-20 -21t-17.5 -17z" />
    <glyph glyph-name="bad" unicode="&#xe716;" 
d="M743 865q54 0 94.5 -24t63.5 -70q3 -5 5 -16q5 -28 30 -57q17 -21 23.5 -46t6 -40.5t-4.5 -41.5q-3 -20 -3 -29q-1 -22 2.5 -33.5t16.5 -33.5q9 -14 11 -17q17 -30 16.5 -65.5t-19.5 -68.5q-21 -37 -59.5 -57.5t-83.5 -20.5q-64 0 -142 2q26 -148 26 -211
q0 -64 -37.5 -94.5t-87.5 -30.5q-47 0 -80 38.5t-33 94.5q0 45 -3.5 59.5t-19.5 37.5q-46 63 -88 103t-63 40h-196q-37 0 -63 25.5t-26 61.5v406q0 36 26 62t63 26h134q9 0 16 -7t7 -16v-512h39q72 0 189 -162q22 -31 27 -52.5t5 -71.5q0 -36 19.5 -61.5t46.5 -25.5
q12 0 23 2.5t24.5 9.5t22 24.5t8.5 42.5q0 31 -8 90.5t-14 94.5t-8 45q-2 11 5.5 19.5t18.5 8.5l5.5 -0.5t15 -0.5t22 -0.5t27.5 -0.5t31 -0.5t34 -0.5h34q33 0 60 14.5t43 40.5q27 46 2 88q-4 8 -10 17q-10 17 -15 26.5t-8.5 27t-2.5 39.5q1 10 4 32q5 24 3 48.5t-18 43.5
q-32 39 -40 78q-1 4 -1 6q-34 67 -116 67h-316q-10 0 -17 6.5t-7 16t7 16.5t17 7h316v0zM118 330h110v489h-110q-18 0 -30 -12.5t-12 -29.5v-406q0 -17 12 -29t30 -12v0zM118 330z" />
    <glyph glyph-name="good" unicode="&#xe717;" 
d="M743 -90h-316q-10 0 -17 7t-7 16.5t7 16.5t17 7h316q82 0 115 67q1 1 2 5q8 39 40 78q16 19 18 44t-3 48q-3 22 -4 33q-1 22 2.5 39.5t8.5 26.5l15 27q6 9 10 16q24 42 -2 88q-16 26 -43 41t-60 15q-16 0 -34 -0.5t-34 -0.5t-31 -0.5t-27.5 -0.5t-22 -0.5t-15 -0.5h-5.5
q-11 0 -18.5 8t-5.5 19t8 45.5t14 94t8 90.5q0 26 -8.5 43t-22 24.5t-24.5 10t-23 2.5q-27 0 -46.5 -25.5t-19.5 -62.5q0 -50 -5 -71.5t-27 -52.5q-117 -161 -189 -161h-39v-512q0 -10 -7 -17t-16 -7h-134q-37 0 -63 26t-26 62v406q0 36 26 62t63 26h196q21 0 63 39.5
t88 102.5q16 23 19.5 37.5t3.5 59.5q0 57 33 95.5t80 38.5q50 0 87.5 -31t37.5 -95q0 -63 -26 -210q81 2 142 2q45 0 83 -21t60 -58q19 -32 19.5 -67.5t-16.5 -66.5q-4 -6 -11 -17q-13 -21 -16.5 -32.5t-2.5 -34.5q0 -8 3 -29q4 -26 4.5 -41t-6 -40.5t-23.5 -45.5
q-25 -30 -30 -58q-2 -10 -5 -16q-23 -45 -63.5 -69.5t-94.5 -24.5v0zM118 446q-18 0 -30 -12.5t-12 -29.5v-406q0 -17 12 -29t30 -12h110v489h-110v0zM118 446z" />
    <glyph glyph-name="phone" unicode="&#xe725;" 
d="M942 158q-40 37 -77 61q-52 37 -85 51q-51 26 -70 26q-28 0 -52 -30q-13 -20 -23 -45t-18 -34q-21 6 -70 38q-57 41 -105 85q-36 37 -85 105q-33 49 -38 70q4 2 34 18q33 13 45 23q30 22 30 52q0 23 -26 70q-12 26 -51 85q-26 37 -61 77q-41 41 -67 41q-47 0 -114 -87
q-14 -18 -27 -39t-26.5 -56.5t-13.5 -64.5q0 -70 75 -194q71 -116 177 -225l21 -21v0q114 -111 225 -177q29 -20 78 -43v0q5 -2 11 -2q11 0 19 8t8 19q0 20 -17 26q-28 13 -71 39q-108 66 -213 169l-21 21q-103 106 -169 213q-67 106 -67 164q0 53 54 124q30 38 45 51
q20 18 27 18q11 -5 34.5 -29.5t52.5 -69.5q32 -46 45 -74q18 -32 18 -43q-4 -5 -10 -9q-4 -2 -15.5 -7t-16.5 -8q-19 -8 -41 -19q-28 -18 -28 -46q0 -33 49 -104q46 -68 92 -113v0q50 -49 113 -92q74 -49 105 -49v0q26 0 45 28q3 4 6 10.5t7 16t6 14.5q8 20 15 31q7 5 11 7
v0q11 0 43 -18q53 -30 74 -45q44 -31 69.5 -54.5t29.5 -32.5q-6 -12 -18 -28q-17 -22 -51 -45q-47 -34 -87 -47v0q-17 -7 -17 -25q0 -12 8 -20t19 -8q4 0 6 2v0q3 0 5 2v0q50 17 102 55q27 20 57 53.5t30 62.5q0 28 -40 68z" />
    <glyph glyph-name="save" unicode="&#xe605;" 
d="M602 564q12 0 21 9t9 21v120q0 12 -9 21t-21 9t-21 -9t-9 -21v-120q0 -12 9 -21t21 -9v0zM932 24q0 -25 -17.5 -42.5t-42.5 -17.5h-720q-25 0 -42.5 17.5t-17.5 42.5v720q0 25 17.5 42.5t42.5 17.5h60v-300q0 -25 17.5 -42.5t42.5 -17.5h480q25 0 42.5 17.5t17.5 42.5
v300h60q25 0 42.5 -17.5t17.5 -42.5v-720zM272 804h480v-270q0 -12 -9 -21t-21 -9h-420q-12 0 -21 9t-9 21v270zM872 864h-720q-50 0 -85 -35t-35 -85v-720q0 -50 35 -85t85 -35h720q50 0 85 35t35 85v720q0 50 -35 85t-85 35v0z" />
    <glyph glyph-name="edit" unicode="&#xe609;" 
d="M832 384v-307q0 -32 -22.5 -54.5t-54.5 -22.5h-550q-32 0 -54.5 22.5t-22.5 54.5v550q0 32 22.5 54.5t54.5 22.5h307v64h-321q-53 0 -90 -37t-37 -90v-578q0 -52 37 -89t90 -37h578q52 0 89 37t37 89v321h-63zM791 844l181 -181l-45 -45l-181 181zM700 754l181 -181
l-45 -45l-181 181zM655 709l45 -46l-271 -271l-45 45zM791 573l45 -45l-271 -272l-46 46zM384 320h181v-64h-181v64zM384 437h64v-181h-64v181z" />
    <glyph glyph-name="user-full" unicode="&#xe60a;" 
d="M653 262q57 50 91.5 130.5t34.5 169.5q0 141 -71 226.5t-196 85.5t-196 -85.5t-71 -226.5q0 -85 31.5 -162.5t85.5 -128.5q17 -61 5 -70t-43.5 -22t-67.5 -25t-69.5 -22.5t-56.5 -17l-23 -6.5q-35 -10 -60 -43.5t-25 -70.5v-77q0 -10 6.5 -16.5t16.5 -6.5h934
q10 0 16.5 6.5t6.5 16.5v77q0 37 -25 70.5t-60 44.5q-213 62 -258 92q-12 8 -6 61z" />
    <glyph glyph-name="selected" unicode="&#xe84d;" 
d="M1005.5 730q-12.5 12 -30 11t-29.5 -13l-562 -599l-307 303q-13 12 -30 12t-29.5 -12.5t-12.5 -30t13 -29.5l338 -333v0v-1q2 -1 9 -5q1 -1 2.5 -2t2.5 -1q7 -3 15 -3q9 0 16 3q1 1 2.5 2t2.5 1q7 5 9 7v0v0h1l591 630q12 13 11.5 30.5t-13 29.5z" />
    <glyph glyph-name="star-fill" unicode="&#xe732;" 
d="M987 499q-7 20 -27 23l-289 44l-128 276q-10 20 -31 20v0q-22 0 -31 -20l-130 -275l-289 -43q-20 -3 -27 -23t8 -35l209 -215l-50 -304q-4 -21 13.5 -33.5t36.5 -2.5l258 142l257 -143q8 -4 17 -4h1q14 0 24 10t10 24q0 7 -2 12l-48 298l210 214q15 15 8 35z" />
    <glyph glyph-name="star" unicode="&#xe733;" 
d="M784 -94q-9 0 -17 5l-257 142l-258 -142q-19 -10 -36.5 2.5t-13.5 33.5l50 304l-209 215q-15 15 -8 34q6 20 26 24l166 28q14 2 25.5 -6t13.5 -22t-6 -25.5t-22 -13.5l-101 -18l176 -181q12 -13 9 -30l-41 -251l213 117q16 9 33 0l212 -118l-40 252q-3 17 9 29l175 180
l-240 37q-18 2 -26 19l-106 227l-106 -226q-6 -13 -19.5 -18t-26.5 1t-17.5 19.5t1.5 26.5l138 292q9 19 30 19v0q22 0 31 -19l129 -276l288 -45q21 -3 27.5 -22.5t-7.5 -34.5l-211 -215l49 -304q4 -21 -14 -33q-8 -7 -19 -7v0z" />
    <glyph glyph-name="like" unicode="&#xe761;" 
d="M512 -32q-45 0 -87 41l-319 323q-25 31 -37.5 49.5t-24.5 54t-12 76.5q0 106 75 181t181 75q81 0 147 -47q11 -7 13.5 -20t-5.5 -24t-21 -13.5t-24 5.5q-49 35 -110 35q-79 0 -135.5 -56.5t-56.5 -135.5q0 -42 13 -69.5t46 -69.5l316 -318q22 -23 41 -23t42 23l316 320
q58 63 58 137q0 80 -56 136t-136 56q-74 0 -129 -50l-134 -134q-10 -10 -23 -10t-22.5 9.5t-9.5 23t9 22.5l135 135q75 68 174 68q106 0 181 -75t75 -181q0 -100 -76 -181l-317 -321q-42 -42 -87 -42z" />
    <glyph glyph-name="date" unicode="&#xe629;" 
d="M771 751v60q0 13 -9.5 22.5t-22.5 9.5t-22.5 -9.5t-9.5 -22.5v-60h-384v60q0 13 -9.5 22.5t-22.5 9.5t-22.5 -9.5t-9.5 -22.5v-60h-202v-826h910v826h-196zM259 686v-67q0 -13 9.5 -22.5t22.5 -9.5t22.5 9.5t9.5 22.5v67h384v-67q0 -13 9.5 -22.5t22.5 -9.5t22.5 9.5
t9.5 22.5v67h131v-99h-780v99h137zM122 -10v533h780v-533h-780zM214 422h124v-123h-124v123zM443 422h124v-123h-124v123zM672 422h124v-123h-124v123zM214 204h124v-124h-124v124zM443 204h124v-124h-124v124zM672 204h124v-124h-124v124z" />
    <glyph glyph-name="setting" unicode="&#xe641;" 
d="M656 -82q-37 0 -63 30q-32 37 -81 37t-81 -37q-17 -20 -41.5 -26.5t-47.5 1.5q-79 29 -144 84q-20 16 -26 41q-5 24 3 47q16 47 -9 89q-24 43 -72 52q-26 5 -44 23t-22 42q-7 41 -7 83t7 83q4 24 22 42t44 23q48 9 72 52q25 42 9 89q-8 23 -3 47q6 25 26 41q65 55 144 84
q23 8 47.5 1.5t41.5 -26.5q32 -37 81 -37t81 37q17 20 41.5 26.5t47.5 -1.5q79 -29 144 -84q20 -16 26 -41q5 -24 -3 -47q-16 -47 9 -89q24 -43 72 -52q26 -5 44 -23t22 -42q7 -41 7 -83t-7 -83q-4 -24 -22 -42t-44 -23q-48 -9 -72 -52q-25 -42 -9 -89q8 -23 3 -47
q-6 -25 -26 -41q-65 -55 -144 -84q-13 -5 -26 -5zM512 46q76 0 127 -57q11 -12 22 -8q69 25 126 73q9 7 4 21q-25 73 13 140q39 66 114 81v0q16 4 18 15q6 36 6 73t-6 73q-2 11 -18 15q-75 15 -114 81q-38 67 -13 140q5 14 -4 21q-57 48 -126 73q-11 4 -22 -8
q-51 -57 -127 -57t-127 57q-11 12 -22 8q-69 -25 -126 -73q-9 -7 -4 -21q25 -73 -13 -140q-39 -66 -114 -81q-16 -4 -18 -15q-6 -36 -6 -73t6 -73q2 -11 18 -15q75 -15 114 -81q38 -67 13 -140q-5 -14 4 -21q57 -48 126 -73q11 -4 22 8q51 57 127 57zM512 215q-58 0 -111 37
v0q-12 9 -21 21q-42 61 -36 126q5 61 48.5 104.5t104.5 48.5q65 6 126 -36q12 -9 21 -21q42 -61 36 -126q-5 -61 -48.5 -104.5t-104.5 -48.5q-7 -1 -15 -1zM512 491q-44 0 -76 -31q-16 -16 -25 -38t-5 -53t24 -61l6 -6v0q37 -25 76 -25q44 0 76 31q16 16 25 38t5 53t-24 61
l-6 6q-37 25 -76 25z" />
    <glyph glyph-name="exl" unicode="&#xe73f;" 
d="M905 717q-10 10 -22 21q-36 33 -67 62q-3 2 -5 4q-45 41 -71 63q-16 13 -25 19q-6 5 -11 7q-6 3 -13 3q-10 0 -17.5 -7.5t-7.5 -18.5v-51v-52v-102v-25h25h205l-26 25v-767l26 25h-666q-31 0 -53.5 22.5t-22.5 54.5v870l-26 -26h461q10 0 17.5 7.5t7.5 18t-7.5 18
t-17.5 7.5h-461h-26v-25v-870q0 -53 37.5 -90.5t90.5 -37.5h666h26v26v767v26h-26h-205l26 -26v102v52v51q0 -10 -7.5 -17.5t-17.5 -7.5q-5 0 -9 2l2 -2q7 -5 22 -17q25 -22 69 -62q3 -2 5 -4q31 -28 67 -62q12 -10 22 -20q6 -5 8 -8q8 -7 18.5 -7t18 8t7 18.5t-7.5 17.5
q-4 3 -9 8zM102 435h-102v-435h512h512v435h-870v0h-52v0zM349 223h-119v-90h140v-40h-191v291h189v-41h-138v-80h119v-40zM511 279l61 105h59l-88 -144l90 -147h-59l-63 107l-63 -107h-59l91 147l-89 144h59zM721 133h132v-40h-183v291h51v-251z" />
    <glyph glyph-name="pdf" unicode="&#xe740;" 
d="M905 717q-10 10 -22 21q-36 33 -67 62q-3 2 -5 4q-45 41 -71 63q-16 13 -25 19q-6 5 -11 7q-6 3 -13 3q-10 0 -17.5 -7.5t-7.5 -18.5v-51v-52v-102v-25h25h205l-26 25v-767l26 25h-666q-31 0 -53.5 22.5t-22.5 54.5v870l-26 -26h461q10 0 17.5 7.5t7.5 18t-7.5 18
t-17.5 7.5h-461h-26v-25v-870q0 -53 37.5 -90.5t90.5 -37.5h666h26v26v767v26h-26h-205l26 -26v102v52v51q0 -10 -7.5 -17.5t-17.5 -7.5q-5 0 -9 2l2 -2q7 -5 22 -17q25 -22 69 -62q3 -2 5 -4q31 -28 67 -62q12 -10 22 -20q6 -5 8 -8q8 -7 18.5 -7t18 8t7 18.5t-7.5 17.5
q-4 3 -9 8zM102 435h-102v-435h512h512v435h-870v0h-52v0zM208 185v-108h-50v291h111q49 0 77.5 -25.5t28.5 -67.5t-28 -66t-79 -24h-60zM208 226h61q27 0 41 12.5t14 36.5t-14 38t-40 14h-62v-101zM419 77v291h86q39 0 69 -17t46.5 -49t16.5 -72v-15q0 -41 -16.5 -72.5
t-47 -48.5t-70.5 -17h-84zM470 327v-210h33q40 0 61 25t22 72v16q0 47 -20.5 72t-60.5 25h-35zM855 200h-117v-123h-51v291h185v-41h-134v-86h117v-41z" />
    <glyph glyph-name="zip" unicode="&#xe741;" 
d="M905 717q-10 10 -22 21q-36 33 -67 62q-3 2 -5 4q-45 41 -71 63q-16 13 -25 19q-6 5 -11 7q-6 3 -13 3q-10 0 -17.5 -7.5t-7.5 -18.5v-51v-52v-102v-25h25h205l-26 25v-767l26 25h-666q-31 0 -53.5 22.5t-22.5 54.5v870l-26 -26h461q10 0 17.5 7.5t7.5 18t-7.5 18
t-17.5 7.5h-461h-26v-25v-870q0 -53 37.5 -90.5t90.5 -37.5h666h26v26v767v26h-26h-205l26 -26v102v52v51q0 -10 -7.5 -17.5t-17.5 -7.5q-5 0 -9 2l2 -2q7 -5 22 -17q25 -22 69 -62q3 -2 5 -4q31 -28 67 -62q12 -10 22 -20q6 -5 8 -8q8 -7 18.5 -7t18 8t7 18.5t-7.5 17.5
q-4 3 -9 8zM102 435h-102v-435h512h512v435h-870v0h-52v0zM282 117h156v-40h-217v33l150 217h-149v41h211v-32zM534 77h-50v291h50v-291zM647 185v-108h-50v291h111q49 0 77.5 -25.5t28.5 -67.5t-28 -66t-79 -24h-60zM647 226h61q27 0 41 12.5t14 36.5t-14 38t-40 14h-62
v-101z" />
    <glyph glyph-name="cart" unicode="&#xe63f;" 
d="M246 -16q0 -28 20 -47.5t47.5 -19.5t47.5 19.5t20 47.5t-20 47.5t-47.5 19.5t-47.5 -19.5t-20 -47.5zM717 -16q0 -28 19.5 -47.5t47.5 -19.5t47.5 19.5t19.5 47.5t-19.5 47.5t-47.5 19.5t-47.5 -19.5t-19.5 -47.5zM906 131h-538q-21 0 -40 16.5t-24 38.5l-96 566
q-7 41 -40.5 68.5t-74.5 27.5h-23q-9 0 -17 -8t-8 -17.5t8 -17.5t17 -8h23q21 0 40 -16.5t24 -38.5l96 -566q7 -41 40.5 -68.5t74.5 -27.5h538q9 0 17 8t8 18t-7 17.5t-18 7.5zM880 717h-573q-9 0 -17 -8t-8 -17.5t8 -17.5t17 -8h573q19 0 28 -11.5t4 -30.5l-70 -282
q-5 -23 -27 -40.5t-47 -19.5l-397 -29q-10 0 -17.5 -8.5t-4.5 -20.5q0 -10 8.5 -17.5t20.5 -4.5l396 28q41 3 75 32t44 68l70 281q10 41 -15 73.5t-68 32.5z" />
    <glyph glyph-name="cart-add" unicode="&#xe640;" 
d="M739 0q0 -27 19 -45.5t45.5 -18.5t45 18.5t18.5 45.5t-18.5 45.5t-45 18.5t-45.5 -18.5t-19 -45.5zM282 0q0 -27 18.5 -45.5t45 -18.5t45.5 18.5t19 45.5t-19 45.5t-45.5 18.5t-45 -18.5t-18.5 -45.5zM774 778q-81 0 -139.5 -58.5t-58.5 -140t58.5 -140t140 -58.5
t140 58.5t58.5 139.5q2 82 -56.5 140.5t-142.5 58.5zM774 432q-62 0 -106 43.5t-44 103.5q0 62 44 104.5t106 42.5q63 0 107 -43.5t44 -103.5q0 -62 -44 -104.5t-107 -42.5zM368 246q0 -9 8 -15.5t18 -6.5l492 42q10 0 16.5 7.5t6.5 17.5t-8 16.5t-18 6.5l-493 -42
q-10 0 -17 -7t-5 -19zM845 605h-48v48q0 10 -7 17.5t-19 7.5q-25 0 -25 -25v-48h-48q-11 0 -18.5 -7t-7.5 -19q0 -10 7 -17.5t19 -7.5h48v-48q0 -11 7 -18.5t18 -7.5q26 0 26 26v48h48q10 0 17.5 7t7.5 18q-2 11 -9 18.5t-16 7.5zM330 704h188q11 0 18.5 7t7.5 19
q0 10 -7 17.5t-19 7.5h-188q-11 0 -18.5 -7t-7.5 -18.5t7.5 -18.5t18.5 -7zM886 154h-524q-21 0 -40 15.5t-24 35.5l-93 547q-7 39 -39.5 66t-72.5 27h-23q-10 0 -17.5 -7t-7.5 -19q0 -10 7 -17.5t18 -7.5h23q22 0 40.5 -15t23.5 -37l93 -547q7 -39 39 -66t73 -27h524
q11 0 18.5 7.5t7.5 18.5q0 10 -8 18t-18 8z" />
    <glyph glyph-name="link" unicode="&#xe646;" 
d="M589 422l-10 7q-7 7 -17 5.5t-15 -8.5q-7 -8 -5.5 -17.5t8.5 -14.5l10 -7q14 -12 14.5 -29.5t-11.5 -34.5l-13 -16q-7 -7 -5.5 -17t9.5 -15q7 -7 17 -5.5t15 8.5l12 16q25 29 22 67t-31 61zM448 176l-141 -176q-12 -14 -30.5 -16.5t-30.5 6.5l-137 112q-14 12 -15 30
t12 34l265 327q12 14 30.5 16.5t30.5 -7.5l13 -9q7 -7 17 -5.5t15 8.5q7 7 5.5 17t-8.5 15l-13 10q-29 23 -66.5 18t-61.5 -34l-266 -327q-24 -28 -21.5 -66t31.5 -62l137 -112q30 -23 67 -18t61 34l141 176q7 8 5.5 17.5t-8.5 14.5q-14 15 -32 -3zM944 621l-128 105
q-31 24 -69 20.5t-62 -32.5l-263 -327q-23 -31 -19.5 -69t32.5 -62l128 -106q32 -23 69.5 -19.5t61.5 32.5l263 327q26 31 22 69t-35 62zM922 518l-263 -326q-12 -14 -31 -16t-36 10l-128 105q-14 12 -16 31.5t10 35.5l262 327q12 14 31 16t36 -10l128 -105q15 -12 17 -31.5
t-10 -36.5z" />
    <glyph glyph-name="position" unicode="&#xe64e;" 
d="M518 848q-105 0 -195 -52.5t-142.5 -143.5t-52.5 -198q0 -63 42 -156q36 -74 118 -183q32 -38 109 -121l35 -36q2 -2 5.5 -5t5.5 -4.5t2 -2.5v0q29 -29 70 -29t67 29v0h1l1 1l1 1v1h1l1 1l1 1l1 1v1h1l1 1l1 1l1 1l1 1l1 1l35 36q39 38 109 121q79 94 119 183
q41 83 41 156q4 80 -25 153.5t-81 126t-124 83.5t-151 31zM822 320q-38 -82 -115 -173q-70 -83 -105 -118l-36 -35l-1 -2l-1 -1l-1 -1l-1 -1l-2 -1l-1 -1l-1 -2l-1 -1l-1 -1l-1 -1l-1 -1q-15 -15 -35.5 -15t-35.5 15v0l-1 1l-1 1v0l-1 1l-1 1l-1 1l-2 2l-1 1l-1 1l-1 1v0
l-1 1l-2 2l-35 35q-6 7 -32.5 35t-42.5 46t-30 37q-72 91 -116 173q-38 77 -38 134q0 95 46 174.5t124.5 125.5t171.5 46t172 -46t125 -125.5t46 -174.5q0 -57 -39 -134zM518.5 634q-71.5 0 -120.5 -50.5t-49 -122.5t50 -122.5t119.5 -50.5t119.5 50.5t50 122.5t-49 122.5
t-120.5 50.5zM518.5 339q-50.5 0 -86 36t-35.5 89t35.5 89t86 36t86 -36t35.5 -89t-35.5 -89t-86 -36z" />
    <glyph glyph-name="feedback" unicode="&#xe656;" 
d="M883 813h-742q-38 0 -65.5 -27t-27.5 -63v-582q0 -36 27.5 -63t65.5 -27h256q6 -6 16 -19q6 -6 9 -13q7 -9 10 -13q23 -35 42 -51t44 -16q26 0 47 16.5t43 50.5l29 45h249q39 0 66 27t27 63v582q-2 39 -29.5 64.5t-66.5 25.5zM931 141q0 -19 -12.5 -32t-32.5 -13h-252
q-10 0 -16 -3q-20 -13 -29 -29q-3 -6 -23 -35v0q-26 -45 -48 -45q-16 0 -48 45q-1 1 -2.5 4.5t-3.5 6t-3 2.5q-3 6 -10 12q-16 21 -27 30t-27 9h-256q-19 0 -32 12.5t-13 32.5v582q0 19 14 32t34 13h742q20 0 34 -13t14 -32v-579h-3zM221 413q0 -21 15 -36t36 -15t36 15
t15 36t-15 36t-36 15t-36 -15t-15 -36zM461 413q0 -21 15 -36t36 -15t36 15t15 36t-15 36t-36 15t-36 -15t-15 -36zM698 413q0 -21 15 -36t36 -15t36 15t15 36t-15 36t-36 15t-36 -15t-15 -36z" />
    <glyph glyph-name="lucky" unicode="&#xe657;" 
d="M866 794v0v0q-31 40 -78 40h-574q-42 0 -70.5 -28.5t-28.5 -70.5v-699q0 -41 28.5 -70t70.5 -29h574q42 0 70.5 29t28.5 70v699q0 37 -21 59zM788 784q9 0 13 -3l-292 -186l-314 186q7 3 19 3h574zM838 33q0 -21 -14.5 -35t-35.5 -14h-574q-21 0 -35.5 14t-14.5 35v699v6
l332 -196q11 -7 25 0l317 202q0 -2 1.5 -6.5t1.5 -5.5v-699h-3zM639 334q10 0 17.5 8t7.5 17t-7.5 17t-17.5 8h-84l72 71q7 7 7 17.5t-7 17t-17 6.5t-17 -6l-81 -81h-3v0l-78 77q-7 7 -17 7t-17 -7t-7 -17t7 -17l68 -68h-74q-9 0 -17 -8t-8 -17t8 -17t17 -8h93v-74h-93
q-9 0 -17 -8t-8 -17t8 -17t17 -8h93v-90q0 -9 8 -17t17 -8t17 8t8 17v90h108q10 0 17.5 8t7.5 17t-7.5 17t-17.5 8h-108v74h105z" />
    <glyph glyph-name="database" unicode="&#xe78b;" 
d="M512 348q-7 0 -13 2l-482 204q-21 8 -21 30.5t20 31.5l482 215q14 6 28 0l482 -215q20 -9 20 -31.5t-21 -30.5l-482 -204q-6 -2 -13 -2zM116 586l396 -167l396 167l-396 176zM512 -66q-7 0 -13 3l-482 203q-13 6 -18.5 19t0 26t18.5 18t26 0l469 -198l469 198q13 5 26 0
t18.5 -18t0 -26t-18.5 -19l-482 -203q-6 -3 -13 -3zM512 141q-7 0 -13 3l-482 203q-13 5 -18.5 18t0 26t18.5 18.5t26 0.5l469 -198l469 198q13 5 26 -0.5t18.5 -18.5t0 -26t-18.5 -18l-482 -203q-6 -3 -13 -3z" />
    <glyph glyph-name="move" unicode="&#xe6cc;" 
d="M728 816v-173h-265v-177h265v-176l264 264zM526 855v-79h-414v-788h791v281h77v-357h-948v943h494z" />
    <glyph glyph-name="folder" unicode="&#xe712;" horiz-adv-x="1229" 
d="M32 -96v640h1152v-640h-1152zM32 608v256h385q20 0 29 -18l55 -107h683v-131h-1152v0z" />
    <glyph glyph-name="add" unicode="&#xe604;" 
d="M750.5 360.5q-9.5 -9.5 -23.5 -9.5h-430q-14 0 -23.5 9.5t-9.5 23.5t9.5 23.5t23.5 9.5h430q14 0 23.5 -9.5t9.5 -23.5t-9.5 -23.5zM535.5 146q-9.5 -10 -23.5 -10t-23.5 9.5t-9.5 23.5v430q0 14 9.5 23.5t23.5 9.5t23.5 -9.5t9.5 -23.5v-430q0 -13 -9.5 -23zM512 -97
q-98 0 -187 38.5t-153 102.5t-102.5 153t-38.5 187t38.5 187t102.5 153t153 102.5t187 38.5t187 -38.5t153 -102.5t102.5 -153t38.5 -187t-38.5 -187t-102.5 -153t-153 -102.5t-187 -38.5zM512 798q-112 0 -207.5 -55.5t-151 -151t-55.5 -207.5t55.5 -207.5t151 -151
t207.5 -55.5t207.5 55.5t151 151t55.5 207.5t-55.5 207.5t-151 151t-207.5 55.5z" />
    <glyph glyph-name="return" unicode="&#xe601;" horiz-adv-x="1000" 
d="M955 31q-8 0 -14 5.5t-8 13.5t-6.5 21.5t-24.5 49t-48 65.5q-123 130 -363 136v-185q0 -14 -12.5 -20.5t-23.5 2.5l-436 316q-9 6 -9 18t9 18l436 318q11 8 23.5 1.5t12.5 -19.5v-197q67 -2 134 -20q136 -36 223 -124q134 -136 130 -376q0 -9 -6 -15.5t-15 -7.5h-2v0z
M469 368q151 0 265 -48q92 -38 155 -105q19 -21 36 -43q-23 138 -109 226q-43 43 -98 72.5t-107.5 40.5t-82.5 14.5t-53 3.5h-6v0q-9 0 -16 6.5t-7 16.5v174l-375 -273l375 -271v163q0 9 6.5 16t16.5 7z" />
    <glyph glyph-name="mail" unicode="&#xe61f;" horiz-adv-x="1320" 
d="M124 -66q-14 0 -23.5 9.5t-9.5 23.5v834q0 14 10 23.5t23 9.5h1094q14 0 23.5 -9.5t9.5 -23.5v-834q0 -14 -9.5 -23.5t-23.5 -9.5h-1094v0zM1185 0v730l-497 -497q-10 -10 -23.5 -10t-23.5 10l-484 484v-717h1028v0zM664 302l466 466h-932z" />
    <glyph glyph-name="open" unicode="&#xe637;" 
d="M63 448h897v-123h-897v123z" />
    <glyph glyph-name="deliver-full" unicode="&#xe603;" horiz-adv-x="1040" 
d="M355 79q0 -41 -28.5 -69.5t-69.5 -28.5t-69.5 28.5t-28.5 69.5t28.5 69.5t69.5 28.5t69.5 -28.5t28.5 -69.5zM906 79q0 -41 -29 -69.5t-69.5 -28.5t-69.5 28.5t-29 69.5t29 69.5t69.5 28.5t69.5 -28.5t29 -69.5zM994 414l-88 186q-1 1 -5 6.5t-5 6.5l-5 5l-5.5 5.5
t-5 4.5t-5.5 4t-5.5 3t-7 2.5t-7.5 1.5t-8 1h-138v88q0 16 -11.5 27.5t-27.5 11.5h-629q-16 0 -27.5 -11.5t-11.5 -27.5v-590q0 -16 11.5 -27.5t27.5 -11.5h78q8 51 47 85.5t91.5 34.5t91.5 -34.5t46 -85.5h275q7 51 46 85.5t91.5 34.5t91.5 -34.5t47 -85.5h39
q16 0 27.5 11.5t11.5 27.5v197q0 13 -7.5 33t-15.5 33zM725 335v226h120q4 0 8 -2.5t5 -4.5l2 -2l83 -184q7 -10 15 -33h-233z" />
    <glyph glyph-name="survey" unicode="&#xe74e;" 
d="M731 849q30 0 50.5 -20.5t20.5 -50.5v-329l-389 -399h11h-284q-29 0 -50 20.5t-21 49.5v729h-24h686zM22 896v-24v-752q0 -49 34.5 -83t83.5 -34h284h10l7 7l402 406l7 7v10v345q0 49 -35 83.5t-84 34.5h-686h-23zM778 260l89 -89l18 -20l98 99l-127 127l-96 -100z
M917 253l-35 -36l-59 58l34 37zM772 291l-256 -256l-5 -5l-2 -7l-23 -117l-7 -34l35 7l116 23l7 2l5 5l257 256l16 17l-16 16l-94 93l-16 17l-17 -17v0v0zM789 241l60 -60l-236 -233l-76 -17l19 78zM154 504h541q10 0 17 6.5t7 15.5t-7 15t-17 6h-541q-9 0 -16 -6t-7 -15
t7 -15.5t16 -6.5v0v0zM154 656h541q10 0 17 6.5t7 15.5t-7 15.5t-17 6.5h-541q-9 0 -16 -6.5t-7 -15.5t7 -15.5t16 -6.5v0v0z" />
    <glyph glyph-name="folder-empty" unicode="&#xe857;" horiz-adv-x="1234" 
d="M1104 -96h-987q-35 0 -60 25t-25 60v790q0 35 25 60t60 25h309l54 -85h624q35 0 60 -24.5t25 -59.5v-706q0 -35 -25 -60t-60 -25zM1132 695q0 11 -8 19.5t-20 8.5h-649l-57 85h-281q-12 0 -20.5 -8.5t-8.5 -20.5v-141h1044v57zM1132 553q0 12 -8 20.5t-20 8.5h-987
q-12 0 -20.5 -8.5t-8.5 -20.5v-564q0 -12 8.5 -20.5t20.5 -8.5h987q12 0 20 8.5t8 20.5v564z" />
    <glyph glyph-name="check-mark" unicode="&#xe6a5;" 
d="M1 -126h1020v1020zM741 58l-62 -62l-62 64l-123 123l88 88l106 -105l220 218l79 -80l-246 -246v0z" />
    <glyph glyph-name="tip" unicode="&#xe617;" 
d="M891 221q-4 2 -17.5 11.5t-19.5 14t-17.5 14.5t-17 18.5t-12.5 20t-10 25.5t-3 29v60q0 74 -38 136t-103 98v81q0 56 -41 95.5t-99.5 39.5t-100 -39.5t-41.5 -95.5v-81q-65 -36 -103 -98t-38 -136v-60q0 -18 -5.5 -34.5t-10.5 -26.5t-19 -23.5t-19 -17.5t-23.5 -17
t-20.5 -15q-10 -6 -19 -15v-0.5t-1 -0.5h1q-25 -25 -25 -60v-119q0 -13 9.5 -21.5t22.5 -8.5h280q6 -39 37 -65t72.5 -26t72 26t36.5 65h286q13 0 22.5 8.5t9.5 21.5v121q-1 49 -45 75v0zM434 729q0 31 23 53t55.5 22t55.5 -22t23 -53v-56q-40 11 -79 11t-78 -11v56z
M509 -66q-28 0 -49.5 17.5t-27.5 43.5h154q-5 -26 -26.5 -43.5t-50.5 -17.5v0zM873 55h-722v89q0 12 8 20v0q3 4 7 6l2 1l2 1q4 3 14 10q22 15 35 26t33 33t30 50.5t10 62.5v60q0 87 64.5 148.5t155.5 61.5t155.5 -61.5t64.5 -148.5v-60q0 -34 10 -62.5t30 -50.5t33 -33
t35 -26q7 -5 13 -9l3 -2l2 -1q14 -9 15 -25v-90v0z" />
    <glyph glyph-name="integral" unicode="&#xe62c;" 
d="M848 810q-126 54 -336 54t-336 -54q-144 -63 -144 -144v-558q0 -42 37 -80t107 -64q120 -60 336 -60q210 0 336 54q67 27 105.5 65.5t38.5 78.5v564q0 81 -144 144v0zM794 564q-109 -42 -282 -42t-282 42q-132 35 -132 102q0 55 132 102q117 36 282 36q146 0 282 -42
q132 -47 132 -102q0 -28 -33.5 -53.5t-98.5 -42.5v0zM800 390q-136 -42 -288 -42q-141 0 -288 42q-132 47 -132 102v66q20 -8 52.5 -24t59.5 -26.5t56 -15.5q130 -30 252 -30t252 30q29 5 56 15.5t59.5 26.5t52.5 24v-72q0 -23 -35 -48.5t-97 -47.5v0zM800 198
q-136 -42 -288 -42q-141 0 -288 42q-132 38 -132 102v90q115 -58 168 -72q130 -30 252 -30t252 30q53 14 168 72v-90q0 -64 -132 -102v0zM512 -36q-141 0 -288 42q-63 18 -97.5 43.5t-34.5 52.5v90q115 -58 168 -72q120 -30 246 -30q122 0 252 30q17 4 34.5 10t28.5 10
t29.5 12t25 11.5t28.5 14.5l28 14v-90q0 -55 -132 -102q-117 -36 -288 -36v0zM512 -36z" />
    <glyph glyph-name="list-menu" unicode="&#xe61c;" 
d="M263 830q81 0 138.5 -57.5t57.5 -137.5q0 -81 -58 -139v0q-57 -58 -138 -58q-82 0 -139 58l-1 2q-56 56 -56 137q0 80 57 138q58 57 139 57v0zM102 331v0h322q14 0 24.5 -10.5t10.5 -25.5v-321q0 -14 -10.5 -24.5t-24.5 -10.5h-322q-14 0 -24.5 10.5t-10.5 24.5v1v320
q0 15 10.5 25.5t24.5 10.5v0zM388 260v0h-250v-250h250v250zM602 830v0h321q14 0 24.5 -10.5t10.5 -24.5v-322q0 -14 -10.5 -24.5t-24.5 -10.5h-321q-15 0 -25 10.5t-10 24.5v322q0 14 10 24.5t25 10.5v0zM887 759v0h-250v-250h250v250v0zM602 331v0h321q14 0 24.5 -10.5
t10.5 -25.5v-321q0 -14 -10.5 -24.5t-24.5 -10.5h-321q-15 0 -25 10.5t-10 24.5v321q0 15 10 25.5t25 10.5v0zM887 260v0h-250v-250h250v250v0zM352 722v0q-36 37 -88.5 37t-88.5 -37q-37 -35 -37 -87q0 -51 35 -88l2 -1q36 -37 88 -37t89 37v0q36 36 36 89q0 50 -35 86z
" />
    <glyph glyph-name="templet" unicode="&#xe765;" 
d="M32 864v-960h960v960h-960zM929 -33h-834v648h834v-648zM929 678h-834v123h834v-123zM118 735v0q0 -14 10 -24t24 -10t24 10t10 24v0q0 14 -10 24t-24 10t-24 -10t-10 -24zM213 735q0 -14 10 -24t24 -10t24 10t10 24t-10 24t-24 10t-24 -10t-10 -24zM306 735
q0 -14 10 -24t24 -10t24 10t10 24t-10 24t-24 10t-24 -10t-10 -24zM429 545h-236v-207h236v207zM253 399v85h116v-85h-116zM510 512h263v-61h-263v61zM509 412h346v-61h-346v61zM429 257h-236v-207h236v207zM253 111v85h116v-85h-116zM510 224h263v-61h-263v61zM509 124h346
v-61h-346v61z" />
    <glyph glyph-name="site" unicode="&#xe60d;" 
d="M938 -15h-197q-27 0 -46 19t-19 46v130q0 27 19 46t46 19h66v130h-590v-130h66q27 0 46 -19t19 -46v-130q0 -27 -19 -46t-46 -19h-197q-27 0 -46 19t-19 46v130q0 27 19 46t46 19h66v163v0v0q0 13 9.5 22.5t22.5 9.5h295v131h-65q-27 0 -46.5 19t-19.5 46v130
q0 27 19.5 46t46.5 19h196q27 0 46.5 -19t19.5 -46v-130q0 -27 -19.5 -46t-46.5 -19h-65v-131h295q13 0 22.5 -9.5t9.5 -22.5v0v0v-163h66q27 0 46 -19t19 -46v-130q0 -27 -19 -46t-46 -19z" />
    <glyph glyph-name="hot" unicode="&#xe756;" 
d="M890 352q-61 148 -33 266q3 11 6 19q0 2 1.5 5.5t1.5 4.5l15 49l-48 -20q-1 0 -6 -2q-4 -2 -7 -4q-10 -4 -19 -10q-26 -15 -47 -37q-41 -43 -62 -113q-21 -69 -19 -162q1 -25 0 -30q1 6 8 10t15 1q-7 3 -20 32q-25 60 -39 188q-16 143 8 252q4 20 9 36q2 7 4 11l21 48
l-51 -15q-21 -7 -50 -25q-57 -36 -104 -95q-41 -52 -71 -119q-35 -78 -50 -139q-5 -22 -9 -44q-1 -8 -2 -17q0 -1 -1 -7t-1 -7q-3 -22 -11 -30q10 9 18 4q-4 2 -9 10q-18 27 -24 77q-4 29 -4 88q1 35 2 78q1 15 1 29q1 7 1 11l4 68l-47 -50q-1 -2 -4 -6q-6 -6 -13 -14
q-20 -23 -37 -45q-8 -11 -16 -21q-35 -50 -63 -115q-70 -165 -39 -324q40 -200 180 -273q47 -24 99 -33.5t130 -9.5q34 0 83 8q80 12 135 39q9 5 12.5 14.5t-1 18.5t-14.5 12.5t-19 -1.5q-48 -24 -121 -35q-44 -7 -75 -7q-71 0 -118 8t-89 30q-118 62 -154 239
q-29 144 36 295q26 60 58 105q7 10 15 20q16 21 35 43q10 12 16 19l-42 17q0 -4 -1 -11q0 -14 -1 -29q-1 -44 -2 -80q0 -62 4 -94q6 -43 21.5 -78t35.5 -47t40 4q13 12 18.5 24.5t8.5 35.5q7 56 18 95.5t41 104.5q27 61 65 109q41 52 91 83q15 10 29 16q7 3 10 4l-30 33
q-8 -19 -16 -55q-26 -117 -9 -268q27 -236 91 -260q16 -7 27.5 1.5t14.5 25.5q2 9 1 38q-2 86 17 146q18 59 51 95q14 15 26 23t36 18l-9 22l-24 7l-9 -30q-32 -134 35 -297q29 -69 23 -146t-44 -126q-6 -8 -5 -18t9 -16t18 -5t17 9q46 60 53.5 150.5t-26.5 170.5z" />
    <glyph glyph-name="catalog" unicode="&#xe64b;" 
d="M878 -110h-732q-41 0 -70 29t-29 70v784q0 41 29 70t70 29h732q41 0 70 -29t29 -70v-784q0 -41 -29 -70t-70 -29zM146 810q-15 0 -26 -11t-11 -26v-784q0 -15 11 -26t26 -11h732q15 0 26 11t11 26v784q0 15 -11 26t-26 11h-732zM266 528h-2q-12 0 -21.5 9t-9.5 21.5
t9.5 22t21.5 9.5h2q13 0 22 -9.5t9 -22t-9 -21.5t-22 -9zM751 528h-372q-13 0 -22 9t-9 21.5t9 22t22 9.5h372q13 0 22 -9.5t9 -22t-9 -21.5t-22 -9zM751 354h-372q-13 0 -22 9t-9 22t9 22t22 9h372q13 0 22 -9t9 -22t-9 -22t-22 -9zM751 186h-372q-13 0 -22 9t-9 22t9 22
t22 9h372q13 0 22 -9t9 -22t-9 -22t-22 -9zM266 359h-2q-12 0 -21.5 9t-9.5 21.5t9.5 22t21.5 9.5h2q13 0 22 -9.5t9 -22t-9 -21.5t-22 -9zM266 190h-2q-12 0 -21.5 9t-9.5 22t9.5 22t21.5 9h2q13 0 22 -9t9 -22t-9 -22t-22 -9z" />
    <glyph glyph-name="plugin-full" unicode="&#xe6a0;" 
d="M541 333v-470l429 244v469zM51 107l428 -244v457l-428 241v-454zM946 656l-435 251l-452 -261l440 -253l447 255v8z" />
    <glyph glyph-name="manager" unicode="&#xe7c3;" 
d="M398 -118q-4 0 -8 1l-10.5 -0.5t-27.5 -0.5t-37.5 1.5t-45 6.5t-46.5 14q-87 36 -128 70t-41 72q0 34 16.5 92t41.5 74q40 25 107 45q58 18 124 31v53q-62 61 -91 139q-29 74 -29 169q0 119 64 182.5t180 63.5q123 0 192 -80q60 -69 60 -171q0 -39 -7.5 -76t-17.5 -62
t-21.5 -46.5t-18 -30t-9.5 -11.5q-8 -9 -20 -10.5t-21.5 6t-11 19.5t6.5 21q13 13 31 51q30 66 30 139q0 20 -2.5 39.5t-13.5 49.5t-30.5 52t-57 38t-89.5 16q-94 0 -140 -53q-44 -52 -44 -136q0 -95 25.5 -157.5t85.5 -119.5q9 -8 9 -20v-88q0 -11 -7 -19t-18 -9
q-1 0 -29.5 -7.5t-72.5 -20t-75 -21.5q-88 -28 -88 -140q0 -35 134 -91q70 -29 159 -18v0q12 -3 18 -13.5t3 -21.5q-7 -22 -29 -22v0v0v0zM895 178q-7 25 -20 47l37 55l-52 52l-55 -36q-22 12 -47 19l-13 65h-74l-13 -65q-25 -7 -47 -19l-55 36l-52 -52l36 -55
q-12 -22 -19 -47l-65 -13v-74l65 -13q7 -24 19 -46l-36 -56l52 -52l55 37q23 -13 47 -20l13 -65h74l13 65q25 7 47 20l55 -37l52 52l-37 56q13 22 20 46l65 13v74zM708 19q-45 0 -77 32t-32 77t32 77t77 32t77 -32t32 -77t-32 -77t-77 -32z" />
    <glyph glyph-name="list-txt" unicode="&#xe62a;" horiz-adv-x="1103" 
d="M327 -96v222h739v-222h-739zM327 495h739v-222h-739v222zM327 864h739v-222h-739v222zM32 126h222v-222h-222v222zM32 495h222v-222h-222v222zM32 864h222v-222h-222v222z" />
    <glyph glyph-name="check" unicode="&#xe627;" 
d="M853 327v-184q0 -69 -49 -117.5t-118 -48.5h-481q-69 0 -118 48.5t-49 117.5v482q0 69 49 117.5t118 48.5h481q37 0 68 -14q9 -4 10 -13q2 -10 -5 -17l-28 -29q-6 -5 -14 -5q-1 0 -5 1q-13 3 -26 3h-481q-39 0 -66 -27t-27 -65v-482q0 -38 27 -65q28 -27 66 -27h481
q38 0 66 27q27 27 27 65v147q0 8 5 13l37 37q6 6 14 6q3 0 6 -2q12 -5 12 -17zM987 610l-471 -471q-14 -14 -33.5 -14t-32.5 14l-249 249q-14 14 -14 33t14 33l63 64q14 14 33.5 14t32.5 -14l153 -152l374 374q14 14 33 14t33 -14l64 -64q13 -14 13 -33t-13 -33z" />
    <glyph glyph-name="build" unicode="&#xe647;" 
d="M313 -52q-128 61 -204.5 179.5t-76.5 256.5q0 98 38 187t102 153t153 102t187 38h66l-140 -236l-59 37l67 118q-145 -22 -242.5 -136t-97.5 -263q0 -116 65.5 -217.5t170.5 -151.5zM512 -96h-66l140 251l66 -37l-74 -133q145 22 242.5 136t97.5 263q0 123 -67.5 225
t-183.5 152l30 66q133 -55 214 -177t81 -266q0 -98 -38 -187t-102 -153t-153 -102t-187 -38z" />
    <glyph glyph-name="log" unicode="&#xe66b;" 
d="M181 798q-27 0 -46.5 -19.5t-19.5 -46.5v-762q0 -27 19.5 -46.5t46.5 -19.5h662q27 0 46.5 19.5t19.5 46.5v762q0 27 -19.5 46.5t-46.5 19.5h-99l33 -33v49q0 21 -14.5 35.5t-35.5 14.5h-430q-21 0 -35.5 -14.5t-14.5 -35.5v-49l33 33h-99zM313 732v82q0 -6 -4.5 -11
t-11.5 -5h430q-7 0 -11.5 4.5t-4.5 11.5v-82h132v-762h-662v762h99h33zM711 715q0 7 4.5 12t11.5 5h-430q7 0 11.5 -5t4.5 -12v50q0 13 -9.5 23t-23 10t-23.5 -10t-10 -23v-50q0 -20 14.5 -35t35.5 -15h430q21 0 35.5 14.5t14.5 35.5v50q0 13 -10 23t-23.5 10t-23 -10
t-9.5 -23v-50zM711 450q13 0 23 10t10 23.5t-10 23t-23 9.5h-398q-13 0 -23 -9.5t-10 -23t10 -23.5t23 -10h398zM313 351q-13 0 -23 -9.5t-10 -23.5t10 -23.5t23 -9.5h398q13 0 23 9.5t10 23.5t-10 23.5t-23 9.5h-398zM313 185q-13 0 -23 -9.5t-10 -23t10 -23.5t23 -10h265
q14 0 23.5 10t9.5 23.5t-9.5 23t-23.5 9.5h-265z" />
    <glyph glyph-name="order" unicode="&#xe615;" 
d="M649 384q15 0 24.5 9.5t9.5 24.5t-9.5 24.5t-24.5 9.5h-103v0q15 0 21 11l105 105q11 11 11 24.5t-10.5 23.5t-24 10t-23.5 -10l-106 -106q-7 -13 -7 -24v0v0q0 16 -10 21l-106 106q-10 10 -24 10t-24 -10.5t-10 -24t10 -23.5l106 -106q10 -10 20 -10v0h-102
q-15 0 -24.5 -9.5t-9.5 -25t9.5 -24.5t24.5 -9h102v-69h-102q-15 0 -24.5 -9t-9.5 -24.5t9.5 -25t24.5 -9.5h102v-136q0 -16 9.5 -25.5t25 -9.5t25 9.5t9.5 25.5v136h102q15 0 24.5 9.5t9.5 25t-9.5 24.5t-24.5 9h-102v69h106v3zM512 896q-212 0 -362 -150t-150 -362
t150 -362t362 -150t362 150t150 362t-150 362t-362 150zM512 -60q-91 0 -173 35t-141.5 94.5t-94.5 141.5t-35 173t35 173t94.5 141.5t141.5 94.5t173 35t173 -35t141.5 -94.5t94.5 -141.5t35 -173t-35 -173t-94.5 -141.5t-141.5 -94.5t-173 -35z" />
    <glyph glyph-name="top" unicode="&#xe62b;" 
d="M650 -96h-276q-32 0 -54 22.5t-22 53.5v265h-1h-144q-41 0 -54.5 31t14.5 61l345 371q22 23 54 23t54 -23l345 -371q28 -29 14.5 -60.5t-54.5 -31.5h-144h-1v-265q0 -31 -22 -53.5t-54 -22.5v0zM201 321h96q31 0 53.5 -22.5t22.5 -53.5v-265h1h276h1v265q0 31 22.5 53.5
t53.5 22.5h96l-311 334zM883 789h-742q-16 0 -27 11t-11 26.5t11 26.5t27 11h742q16 0 27 -11t11 -26.5t-11 -26.5t-27 -11v0z" />
    <glyph glyph-name="app" unicode="&#xe60b;" 
d="M1008 589l-218 -218q-15 -15 -36.5 -15t-36.5 15l-219 218q-15 16 -15 37t15 36l219 219q15 15 36.5 15t36.5 -15l218 -219q15 -15 15 -36t-15 -37zM754 841l-216 -216l216 -215l215 215zM370 -128h-313q-23 0 -40 16.5t-17 40.5v313q0 23 17 40t40 17h313q23 0 40 -17
t17 -40v-313q0 -24 -17 -40.5t-40 -16.5zM370 242h-313v-313h313v313zM370 384h-313q-23 0 -40 16.5t-17 40.5v312q0 24 17 40.5t40 16.5h313q23 0 40 -16.5t17 -40.5v-312q0 -24 -17 -40.5t-40 -16.5zM370 753h-313v-312h313v312zM569 299h313q23 0 39.5 -17t16.5 -40v-313
q0 -24 -16.5 -40.5t-39.5 -16.5h-313q-24 0 -40.5 16.5t-16.5 40.5v313q0 23 16.5 40t40.5 17zM569 -71h313v313h-313v-313z" />
    <glyph glyph-name="list-fill" unicode="&#xe659;" 
d="M120 432h345v331q0 50 -35.5 85t-84.5 35h-225q-49 0 -84.5 -35.5t-35.5 -84.5v-210q0 -50 35.5 -85.5t84.5 -35.5zM1024 552v211q0 50 -35 85t-85 35h-222q-50 0 -85 -35.5t-35 -84.5v-331h343q49 0 84 35.5t35 84.5zM682 -115h227q50 0 82.5 35t32.5 85v211
q0 50 -35 85t-85 35h-343v-331q0 -49 35.5 -84.5t85.5 -35.5zM120 -115h225q50 0 85 35.5t35 84.5v331h-345q-49 0 -84.5 -35.5t-35.5 -84.5v-211q0 -49 35.5 -84.5t84.5 -35.5z" />
    <glyph glyph-name="home-full" unicode="&#xe671;" horiz-adv-x="1195" 
d="M976 520v312h-168v-160l-216 192l-560 -496l72 -88l488 432l488 -432l72 88zM208 304v-400h296v280h176v-280h296v400l-384 344z" />
    <glyph glyph-name="eye" unicode="&#xe64c;" horiz-adv-x="1603" 
d="M1439 393q-87 176 -253.5 280t-363.5 104q-194 0 -358 -100.5t-253 -272.5q-4 -7 -4 -15t4 -15q87 -176 253 -280t364 -104q193 0 357.5 101t253.5 272q4 7 4 15t-4 15v0zM828 57q-174 0 -322 89.5t-228 242.5q82 148 227.5 235t316.5 87q174 0 321.5 -90t228.5 -242
q-82 -149 -228 -235.5t-316 -86.5v0zM953 254q53 54 53 130q0 77 -54.5 132t-131.5 55t-131.5 -55t-54.5 -132t54.5 -132t131.5 -55q11 0 19 8t8 19t-8 19t-19 8q-55 0 -94 39t-39 94t39 94t94 39t94 -39t39 -94q0 -54 -38 -93q-8 -8 -8 -19t8 -19q8 -7 19 -7t19 8v0z" />
    <glyph glyph-name="user" unicode="&#xe618;" 
d="M512.5 333q-116.5 0 -199 82.5t-82.5 199t82.5 199t199 82.5t199 -82.5t82.5 -199t-82.5 -199t-199 -82.5zM512.5 836q-91.5 0 -156.5 -65t-65 -156.5t65 -156.5t156.5 -65t156.5 65t65 156.5t-65 156.5t-156.5 65zM994 -128v0q-13 0 -21.5 9t-8.5 21v0q0 130 -72 233.5
t-185 137.5q-22 6 -22 29q0 4 1 8q7 22 29 22q5 0 9 -2q132 -39 216 -158.5t84 -269.5v0q0 -12 -9 -21t-21 -9v0zM30 -128v0q-12 0 -21 9t-9 21v0q0 148 83 267.5t214 159.5q11 4 22.5 -2t14.5 -18q2 -4 2 -8q0 -23 -21 -29q-113 -35 -184 -138t-71 -232v0q0 -12 -8.5 -21
t-21.5 -9v0v0z" />
    <glyph glyph-name="list-img" unicode="&#xe60e;" 
d="M32 864h420v-420h-420v420zM572 864h420v-420h-420v420zM572 324h420v-420h-420v420zM32 324h420v-420h-420v420z" />
    <glyph glyph-name="arrow-up" unicode="&#xe858;" horiz-adv-x="1025" 
d="M1024 128h-130l-382 383l-382 -383h-130l512 512z" />
    <glyph glyph-name="arrow-left" unicode="&#xe859;" horiz-adv-x="1025" 
d="M768 896v-130l-383 -382l383 -382v-130l-512 512z" />
    <glyph glyph-name="arrow-right" unicode="&#xe85a;" horiz-adv-x="1025" 
d="M256 -128v130l383 382l-382 382v130l511 -512z" />
  </font>
</defs>
</svg>
